Все для ферм / Идентификация борна в mp4 скачать

Идентификация Борна / The Bourne Identity (2002) BDRip 720p от AleksSin | D, A скачать торрент

Идентификация борна в mp4 скачать 1

Информация о фильме
Название: Идентификация Борна
Оригинальное название: The Bourne Identity
Год выхода: 2002
Жанр: боевик, триллер, криминал, детектив
Режиссер: Даг Лайман
В ролях: Мэтт Дэймон, Франка Потенте, Крис Купер, Клайв Оуэн, Брайан Кокс, Адевале Акиннуойе-Агбадже, Гэбриел Манн, Уолтон Гоггинс, Джош Хэмилтон

О фильме:
Команда итальянского рыболовецкого судна находит в водах Средиземного моря тело мужчины. У него два пулевых ранения в спине и имплантированный в бедро микрофильм, помеченный номером швейцарского банка. Когда незнакомец приходит в себя, оказывается, что он не помнит кто он, и что с ним случилось, однако он может говорить на нескольких языках и обладает другими необычными способностями.
Получив в Цюрихе деньги с указанного банковского счета, он узнает свое имя — Джейсон Борн. Но настоящее это его имя или нет? Пытаясь восстановить свое прошлое, он находит свой адрес в Париже, но вместе с этим понимает, что отслеживается убийцей. Борн уговаривает немецкую студентку Мэри отвезти его в Париж, чтобы выяснить все о своем прошлом и понять, кто хочет его убить…

Страна: США, Германия, Чехия
Продолжительность: 01:58:36
Перевод: Дублированный, авторский

Файл
Кодек: x264
Качество: BDRip 720p Исходник: Blu-Ray Remux (1080p)
Видео: 1280x544 (2.35:1) at 23.976 fps, AVC at 3700 kbps avg, 0.22 bit/pixel
Аудио: Русский AC3, 6ch 448 Kbps (дубляж)
Аудио: Русский AC3, 6ch 448 Kbps (одноголосый, Ю. Живов)
Аудио: Русский AC3, 6ch 384 Kbps (одноголосый, А. Гаврилов)
Аудио: Украинский AC3, 2ch 256 Kbps (Ukr.MVO)
Субтитры: Русские (forced, full), Английские (.srt*)
Навигация по главам: Есть

Общее
Уникальный идентификатор : 254785783379962363475478776673323794162 (0xBFADF4FB6ED8492591F0F5E981A13EF2)
Полное имя : S:ФильмыИдентификация Борна. 2002. BDRip 720p (AleksSin).mkv
Формат : Matroska
Версия формата : Version 4 / Version 2
Размер файла : 4,33 Гбайт
Продолжительность : 1 ч. 58 м.
Общий поток : 5236 Кбит/сек
Дата кодирования : UTC 2015-09-08 19:47:22
Программа кодирования : mkvmerge v8.1.0 ('Psychedelic Postcard') 32bit
Библиотека кодирования : libebml v1.3.1 + libmatroska v1.4.2
DURATION : 01:50:16.902000000
NUMBER_OF_FRAMES : 1130
NUMBER_OF_BYTES : 34784
_STATISTICS_WRITING_APP : mkvmerge v8.1.0 ('Psychedelic Postcard') 32bit
_STATISTICS_WRITING_DATE_UTC : 2015-09-08 19:47:22
_STATISTICS_TAGS : BPS DURATION NUMBER_OF_FRAMES NUMBER_OF_BYTES

Видео
Идентификатор : 1
Формат : AVC
Формат/Информация : Advanced Video Codec
Профиль формата :
Параметр CABAC формата : Да
Параметр ReFrames формата : 9 кадров
Идентификатор кодека : V_MPEG4/ISO/AVC
Продолжительность : 1 ч. 58 м.
Битрейт : 3700 Кбит/сек
Ширина : 1280 пикселей
Высота : 544 пикселя
Соотношение сторон : 2,35:1
Режим частоты кадров : Постоянный
Частота кадров : 23,976 кадра/сек
Цветовое пространство : YUV
Субдискретизация насыщенности : 4:2:0
Битовая глубина : 8 бит
Тип развёртки : Прогрессивная
Бит/(Пиксели*Кадры) : 0.222
Размер потока : 2,97 Гбайт (69%)
Библиотека кодирования : x264 core 146 r2538 121396c
Настройки программы : cabac=1 / ref=9 / deblock=1:-3:-3 / analyse=0x3:0x133 / me=umh / subme=11 / psy=1 / psy_rd=1.00:0.00 / mixed_ref=1 / me_range=32 / chroma_me=1 / trellis=2 / 8x8dct=1 / cqm=0 / deadzone=21,11 / fast_pskip=0 / chroma_qp_offset=-2 / threads=12 / lookahead_threads=2 / sliced_threads=0 / nr=0 / decimate=0 / interlaced=0 / bluray_compat=0 / constrained_intra=0 / bframes=8 / b_pyram > Default : Да
Forced : Нет
Цветовой диапазон : Limited
Основные цвета : BT.709
Характеристики трансфера : BT.709
Коэффициенты матрицы : BT.709

Аудио #1
Идентификатор : 2
Формат : AC-3
Формат/Информация : Audio Coding 3
Расширение режима : CM (complete main)
Параметр Endianness формата : Big
Идентификатор кодека : A_AC3
Продолжительность : 1 ч. 58 м.
Вид битрейта : Постоянный
Битрейт : 448 Кбит/сек
Каналы : 6 каналов
Расположение каналов : Front: L C R, Side: L R, LFE
Частота : 48,0 КГц
Битовая глубина : 16 бит
Метод сжатия : С потерями
Размер потока : 379 Мбайт (9%)
Default : Да
Forced : Нет

Аудио #2
Идентификатор : 3
Формат : AC-3
Формат/Информация : Audio Coding 3
Расширение режима : CM (complete main)
Параметр Endianness формата : Big
Идентификатор кодека : A_AC3
Продолжительность : 1 ч. 58 м.
Вид битрейта : Постоянный
Битрейт : 448 Кбит/сек
Каналы : 6 каналов
Расположение каналов : Front: L C R, Side: L R, LFE
Частота : 48,0 КГц
Битовая глубина : 16 бит
Метод сжатия : С потерями
Размер потока : 379 Мбайт (9%)
Default : Нет
Forced : Нет

Аудио #3
Идентификатор : 4
Формат : AC-3
Формат/Информация : Audio Coding 3
Расширение режима : CM (complete main)
Параметр Endianness формата : Big
Идентификатор кодека : A_AC3
Продолжительность : 1 ч. 58 м.
Вид битрейта : Постоянный
Битрейт : 384 Кбит/сек
Каналы : 6 каналов
Расположение каналов : Front: L C R, Side: L R, LFE
Частота : 48,0 КГц
Битовая глубина : 16 бит
Метод сжатия : С потерями
Размер потока : 325 Мбайт (7%)
Default : Нет
Forced : Нет

Аудио #4
Идентификатор : 5
Формат : AC-3
Формат/Информация : Audio Coding 3
Расширение режима : CM (complete main)
Параметр Endianness формата : Big
Идентификатор кодека : A_AC3
Продолжительность : 1 ч. 58 м.
Вид битрейта : Постоянный
Битрейт : 256 Кбит/сек
Каналы : 2 канала
Расположение каналов : Front: L R
Частота : 48,0 КГц
Битовая глубина : 16 бит
Метод сжатия : С потерями
Размер потока : 217 Мбайт (5%)
Default : Нет
Forced : Нет

Текст #1
Идентификатор : 6
Формат : UTF-8
Идентификатор кодека : S_TEXT/UTF8
Идентификатор кодека/Информация : UTF-8 Plain Text
Default : Да
Forced : Нет

Текст #2
Идентификатор : 7
Формат : UTF-8
Идентификатор кодека : S_TEXT/UTF8
Идентификатор кодека/Информация : UTF-8 Plain Text
Default : Нет
Forced : Нет

Текст #3
Идентификатор : 8
Формат : UTF-8
Идентификатор кодека : S_TEXT/UTF8
Идентификатор кодека/Информация : UTF-8 Plain Text
Default : Нет
Forced : Нет

Меню
00:00:00.000 : en:
00:06:27.166 : en:
00:08:33.667 : en:
00:11:37.167 : en:
00:13:36.667 : en:
00:19:41.334 : en:
00:25:38.834 : en:
00:29:13.166 : en:
00:36:33.432 : en:
00:43:53.266 : en:
00:48:23.934 : en:
00:51:48.434 : en:
01:01:56.932 : en:
01:09:56.600 : en:
01:18:39.266 : en:
01:23:54.266 : en:
01:31:34.100 : en:
01:38:32.600 : en:
01:45:06.068 : en:
01:51:26.435 : en: